广告位置设置 广告位置设置 广告位置设置 广告位置设置 广告位置设置
广告位置设置 广告位置设置 广告位置设置 广告位置设置 广告位置设置
您的位置: 玉环商城论坛 -> 影音先锋 -> 音乐地带 -> 最红巨星时尚流行《网络劲爆神曲 女人篇DSD... 
本帖共有464个阅读者
发表帖子 发表投票 回复主题
最红巨星时尚流行《网络劲爆神曲 女人篇DSD》CD1[WAV/CUE/320k皮皮盘]
尊贵身份标志
商城管理员(管理员)
商城管理员
头衔:论坛总管理
帮派:六扇门
帖数:48
金钱:36851
积分:63509
注册时间:2009/9/1
楼主信息 | 留言 | Email | 主页 | 编辑 | 管理 | 离线
最红巨星时尚流行《网络劲爆神曲 女人篇DSD》CD1[WAV/CUE/320k皮皮盘]

分享到


分享到


专辑名称:网络劲爆神曲 女人篇DSD
专辑艺人:群星
发行:广州聆听唱片文化有限公司
出版:广州新时代影音公司
ISRC: CN-F21-14-368-00/A.J6
资源类型:章鱼原抓 WAV+CUE

专辑简介:
最红巨星时尚流行 STAR CLASSIC

专辑曲目:
CD1
01 有个傻瓜爱过你 -- 唐古 4:03
02 不要在我的伤口撒盐-- 庄心妍 4:24
03 都是温柔犯的错 -- 曾雨轩 3:36
04 三分爱情七分骗 -- 张冬玲 4:07
05 回忆的沙漏 --邓紫棋 3:52
06 爱不可及 -- 王菲 3:11
07 一拍两散 -- 许佳慧 4:34
08 太依赖 -- 李舒桐/祁隆 3:23
09 不嫁高富帅不爱美富白 -- 郭慧敏 3:26
10 待我长发和腰 -- 尚雯婕 4:49
11 一个好女人 -- 朱贝贝 4:04
12 待嫁的新娘 -- 凤凰传奇 4:30
13 好姐妹 -- 唐古/樊桐舟 3:40
14 错爱情歌 -- 庄心妍 3:21
15 你的眼角流着我的泪 -- 门丽 4:36
16 问百度 -- 陈瑞 4:09

Exact Audio Copy V0.99 prebeta 4 from 23. January 2008

EAC 抓取日志文件从20. 四月 2015, 14:04

章鱼原抓 / 网络劲爆神曲 女人篇DSD CD1

使用驱动器 :BENQ DVDROM DD18SA Adapter: 3 ID: 1

读取模式 : 保护

读取偏移校正 : 0
读取 Lead-In 和 Lead-Out : 否
用静音填充抓取中丢失偏移的采样 : 是
去除首尾静音块 : 否
在 CRC 计算中使用了空样本 : 否
已用接口 : Win NT 及 2000 本地 Win32 接口

所用输出格式 : 内部 WAV 函数
样本格式 : 44.100 Hz;16 Bit;立体声


被抓轨 CD 的 TOC

音轨 | 开始 | 长度 | 起始扇区 | 结尾扇区
--------------------------------------------------
1 | 0:00.00 | 4:04.57 | 0 | 18356
2 | 4:04.57 | 4:27.42 | 18357 | 38423
3 | 8:32.24 | 3:35.63 | 38424 | 54611
4 | 12:08.12 | 4:10.57 | 54612 | 73418
5 | 16:18.69 | 3:51.51 | 73419 | 90794
6 | 20:10.45 | 3:14.72 | 90795 | 105416
7 | 23:25.42 | 4:36.06 | 105417 | 126122
8 | 28:01.48 | 3:27.06 | 126123 | 141653
9 | 31:28.54 | 3:29.63 | 141654 | 157391
10 | 34:58.42 | 4:50.54 | 157392 | 179195
11 | 39:49.21 | 4:03.69 | 179196 | 197489
12 | 43:53.15 | 4:33.51 | 197490 | 218015
13 | 48:26.66 | 3:41.72 | 218016 | 234662
14 | 52:08.63 | 3:23.27 | 234663 | 249914
15 | 55:32.15 | 4:30.42 | 249915 | 270206
16 | 60:02.57 | 4:10.51 | 270207 | 289007


范围状态及错误

已选择范围

文件名 E:\★音乐收藏\原抓\章鱼原抓 - 网络劲爆神曲 女人篇DSD CD1.wav

峰值电平 100.0 %
范围质量 100.0 %
复制 CRC 8F063B3F
复制成功

没有错误发生

状态报告结尾





「该帖子被 商城管理员 在 2015/11/22 17:28:50 编辑过」

网上订餐系统 - www.yuhuan-mall.com
等级:管理员 参考IP地址:*.*.*.*
2015/11/22 16:55:26
尊贵身份标志
商城管理员(管理员)
商城管理员
头衔:论坛总管理
帮派:六扇门
帖数:48
金钱:36851
积分:63509
注册时间:2009/9/1
1信息 | 留言 | Email | 主页 | 编辑 | 管理 | 离线
等级:管理员 参考IP地址:*.*.*.*
2015/11/22 16:56:20
Powered by 玉环商城论坛 Copyright © 2015 www.yuhuan-mall.com. All rights reserved.